Jump to content

Las Vegas Shows  

Welcome to Celine Dion Forum

Welcome to Celine Dion Forum, like most online communities you must register to view or post in our community, but don't worry this is a simple free process that requires minimal information for you to signup. Be a part of Celine Dion Forum by signing in or creating an account.
  • Start new topics and reply to others
  • Subscribe to topics and forums to get automatic updates
  • Get your own profile and make new friends
  • Customize your experience here
  • Click here to become a member!

[1080i] Celine Dion @ Le Grand Show, F2, 2016-10-013 Performances


  • Please log in to reply
9 replies to this topic

#1
kevincheung410

kevincheung410

    Celine Obsessed

  • Channel Addicts
  • PipPipPipPipPipPip
    • Member ID: 409
  • 2,635 posts
  • Local time: 10:36 AM
  • Skin: Celine 2016
  • Joined: 13-November 04
  • Gender:
  • Country: China
  • Born: 1983
Posted Image

现提供2种下载方法:
Posted ImagePosted Image

Hidden Content / Contenu Caché / Contenuto Nascosto / Contenido Oculto
You must reply to this topic to view it / Vous devez écrire un message dans ce topic pour le regarder / Devi postare un messaggio in questo topic per vedere il contenuto nascosto / Debes escribir un mensaje en este tema para visualizarlo


Posted Image

Céline Dion - Encore un soir @ Le Grand Show, F2, 2016-10-01
http://v.youku.com/v...YwMzMxMg==.html
http://my.tv.sohu.co.../85392982.shtml


Céline Dion - Pour que tu m'aimes encore @ Le Grand Show, F2, 2016-10-01
http://v.youku.com/v...YwNDM4OA==.html
http://my.tv.sohu.co.../85392986.shtml


Céline Dion - Les yeux au ciel @ Le Grand Show, F2, 2016-10-01
http://v.youku.com/v...YwMzY4NA==.html
http://my.tv.sohu.co.../85393085.shtml

www.celinecn.com / www.celinedion.com.cn
Youku | Sohu

#2
kevincheung410

kevincheung410

    Celine Obsessed

  • Channel Addicts
  • PipPipPipPipPipPip
    • Member ID: 409
  • 2,635 posts
  • Local time: 10:36 AM
  • Skin: Celine 2016
  • Joined: 13-November 04
  • Gender:
  • Country: China
  • Born: 1983
Posted Image


   General #1
  Complete name : Céline Dion - Encore un soir @ Le Grand Show, F2, 2016-10-01.ts
  Format : MPEG-TS
  File size : 240 MiB
  Duration : 4mn 49s
  Overall bit rate mode : Variable
  Overall bit rate : 6 943 Kbps
   Video #120
  ID : 120 (0x78)
  Menu ID : 257 (0x101)
  Format : AVC
  Format/Info : Advanced Video Codec
  Format profile : High@L4.0
  Format settings, CABAC : Yes
  Format settings, ReFrames : 4 frames
  Format settings, GOP : M=8, N=32
  Codec ID : 27
  Duration : 4mn 49s
  Bit rate : 6 212 Kbps
  Width : 1 920 pixels
  Height : 1 080 pixels
  Display aspect ratio : 16:9
  Frame rate : 25.000 fps
  Standard : Component
  Color space : YUV
  Chroma subsampling : 4:2:0
  Bit depth : 8 bits
  Scan type : MBAFF
  Scan order : Top Field First
  Bits/(Pixel*Frame) : 0.120
  Stream size : 215 MiB (89%)
  Color primaries : BT.709
  Transfer characteristics : BT.709
  Matrix coefficients : BT.709
  Color range : Limited
   Audio #130
  ID : 130 (0x82)
  Menu ID : 257 (0x101)
  Format : E-AC-3
  Format/Info : Audio Coding 3
  Format settings, Endianness : Big
  Codec ID : 6
  Duration : 4mn 49s
  Bit rate mode : Constant
  Bit rate : 128 Kbps
  Channel(s) : 2 channels
  Channel positions : Front: L R
  Sampling rate : 48.0 KHz
  Compression mode : Lossy
  Stream size : 4.42 MiB (2%)
  Language : French
   Audio #131
  ID : 131 (0x83)
  Menu ID : 257 (0x101)
  Format : E-AC-3
  Format/Info : Audio Coding 3
  Format settings, Endianness : Big
  Codec ID : 6
  Duration : 4mn 49s
  Bit rate mode : Constant
  Bit rate : 128 Kbps
  Channel(s) : 2 channels
  Channel positions : Front: L R
  Sampling rate : 48.0 KHz
  Compression mode : Lossy
  Stream size : 4.42 MiB (2%)
  Language : qad
   Audio #132
  ID : 132 (0x84)
  Menu ID : 257 (0x101)
  Format : E-AC-3
  Format/Info : Audio Coding 3
  Format settings, Endianness : Big
  Codec ID : 6
  Duration : 4mn 49s
  Bit rate mode : Constant
  Bit rate : 128 Kbps
  Channel(s) : 2 channels
  Channel positions : Front: L R
  Sampling rate : 48.0 KHz
  Compression mode : Lossy
  Stream size : 4.42 MiB (2%)
  Language : qaa
   Text #133
  ID : 133 (0x85)
  Menu ID : 257 (0x101)
  Format : DVB Subtitle
  Codec ID : 6
  Duration : 4mn 45s
  Delay relative to video : 4s 480ms
  Language : French

Posted Image

Posted Image

Posted Image

Posted Image Posted Image Posted Image Posted Image

Edited by kevincheung410, 04 October 2016 - 06:08 AM.

www.celinecn.com / www.celinedion.com.cn
Youku | Sohu

#3
dawn

dawn

    Celinephile

  • Channel Addicts
  • PipPipPipPipPipPipPipPipPipPipPip
    • Member ID: 175
  • 11,099 posts
  • Local time: 04:36 AM
  • Skin: Celine 2016
  • Joined: 03-November 04
  • Gender:
  • Country: Spain
  • Born: 1977
Thank you Kevin for sharing these performances!!!

#4
TiagoFragoso05

TiagoFragoso05

    Celine Obsessed

  • Members
  • PipPipPipPipPipPip
    • Member ID: 20,402
  • 2,669 posts
  • Local time: 06:36 PM
  • Skin: Celine 2016
  • Joined: 02-August 08
  • Gender:
  • From:Vancouver, Canada
  • Country: Canada
  • Born: 1992
merciiii
Please subscribe to my new channel. > https://www.youtube....7wkabGfTkBz41Yg
Image IPB

#5
Ploppy

Ploppy

    Newbie

  • Members
    • Member ID: 36,162
  • 2 posts
  • Local time: 06:36 PM
  • Joined: 08-October 16
  • Gender:
  • Country: us
  • Born: 1964
Thank you for this nice post. Much appreciated!

#6
daisy

daisy

    Celine Freak

  • Members
  • PipPipPipPip
    • Member ID: 305
  • 531 posts
  • Local time: 09:36 PM
  • Skin: Celine 2016
  • Joined: 08-November 04
  • Gender:
  • Country: china
  • Born: 1982
omg thanks very much

#7
koala44

koala44

    Celine Fanatic

  • Members
  • PipPipPip
    • Member ID: 32,449
  • 223 posts
  • Local time: 04:36 AM
  • Joined: 25-March 13
  • Gender:
  • Country: france
  • Born: 1953
merci

#8
Emi1

Emi1

    Celine Freak

  • Members
  • PipPipPipPip
    • Member ID: 8,991
  • 640 posts
  • Local time: 09:36 PM
  • Skin: Celine 2016
  • Joined: 01-September 06
  • Gender:
  • Country: Argentina
thanks

#9
blue_rush14

blue_rush14

    Celine Fanatic

  • Members
  • PipPipPip
    • Member ID: 279
  • 202 posts
  • Local time: 09:36 PM
  • Skin: Celine 2016
  • Joined: 07-November 04
  • Gender:
  • Country: Philippines
  • Born: 1983
Thanks

#10
blue_rush14

blue_rush14

    Celine Fanatic

  • Members
  • PipPipPip
    • Member ID: 279
  • 202 posts
  • Local time: 09:36 PM
  • Skin: Celine 2016
  • Joined: 07-November 04
  • Gender:
  • Country: Philippines
  • Born: 1983
Thanks




0 user(s) are reading this topic

0 members, 0 guests, 0 anonymous users


This topic has been visited by 17 user(s)


    koala44, Jascka01, Emi1, daisy, peny20, kevincheung410, Ploppy, rgomezric, SGo, dawn, CelineTheBest5, VinnyT., LeChauffeur100, contre5nature, Jackie, TiagoFragoso05, Gulenkov

Administrators: Koolan & Bellamy