Jump to content

Las Vegas Shows  

Welcome to Celine Dion Forum

Welcome to Celine Dion Forum, like most online communities you must register to view or post in our community, but don't worry this is a simple free process that requires minimal information for you to signup. Be a part of Celine Dion Forum by signing in or creating an account.
  • Start new topics and reply to others
  • Subscribe to topics and forums to get automatic updates
  • Get your own profile and make new friends
  • Customize your experience here
  • Click here to become a member!

[720p] Celine Dion @ M6 Music Show 100% tubes 2016-09-07Encore un soir & Les yeux au ciel


  • Please log in to reply
17 replies to this topic

#1
kevincheung410

kevincheung410

    Celine Obsessed

  • Channel Addicts
  • PipPipPipPipPipPip
    • Member ID: 409
  • 2,630 posts
  • Local time: 03:26 AM
  • Skin: Celine 2016
  • Joined: 13-November 04
  • Gender:
  • Country: China
  • Born: 1983
Posted Image

现提供2种下载方法:
Posted ImagePosted Image

Hidden Content / Contenu Caché / Contenuto Nascosto / Contenido Oculto
You must reply to this topic to view it / Vous devez écrire un message dans ce topic pour le regarder / Devi postare un messaggio in questo topic per vedere il contenuto nascosto / Debes escribir un mensaje en este tema para visualizarlo

Posted Image

http://my.tv.sohu.co.../85304833.shtml
http://v.youku.com/v...c5NzUxNg==.html



http://my.tv.sohu.co.../85304823.shtml
http://v.youku.com/v...c5NzkwMA==.html


Edited by kevincheung410, 25 September 2016 - 05:53 AM.

www.celinecn.com / www.celinedion.com.cn
Youku | Sohu

#2
kevincheung410

kevincheung410

    Celine Obsessed

  • Channel Addicts
  • PipPipPipPipPipPip
    • Member ID: 409
  • 2,630 posts
  • Local time: 03:26 AM
  • Skin: Celine 2016
  • Joined: 13-November 04
  • Gender:
  • Country: China
  • Born: 1983
Posted Image
#高清下载# 法国M6电视台于9月7日播出音乐节目M6 Music Show #100% tubes 2016#。Celine Dion作为当期嘉宾之一,演唱了#Encore un soir#(再一个夜晚)和#Les yeux au ciel#(仰望天空)。


   General
  Complete name : Celine Dion - Encore Un Soir @ M6 Music Show 100% tubes 2016, 2016-09-07.mkv
  Format : Matroska
  Format version : Version 4 / Version 2
  File size : 127 MiB
  Duration : 3 min
  Overall bit rate : 4 601 kb/s
  Encoded date : UTC 2016-09-11 11:55:48
  Writing application : mkvmerge v9.1.0 ('Little Earthquakes') 64bit
  Writing library : libebml v1.3.3 + libmatroska v1.4.4
   Video #1
  ID : 1
  Format : AVC
  Format/Info : Advanced Video Codec
  Format profile : High@L4.1
  Format settings, CABAC : Yes
  Format settings, ReFrames : 4 frames
  Codec ID : V_MPEG4/ISO/AVC
  Duration : 3 min
  Bit rate : 4 151 kb/s
  Width : 1 280 pixels
  Height : 720 pixels
  Display aspect ratio : 16:9
  Original display aspect ratio : 16:9
  Frame rate mode : Constant
  Frame rate : 25.000 FPS
  Color space : YUV
  Chroma subsampling : 4:2:0
  Bit depth : 8 bits
  Scan type : Progressive
  Bits/(Pixel*Frame) : 0.180
  Stream size : 115 MiB (90%)
  Writing library : x264 core 148 r2638 7599210
  Encoding settings : cabac=1 / ref=3 / deblock=1:0:0 / analyse=0x3:0x133 / me=umh / subme=9 / psy=1 / psy_rd=1.00:0.00 / mixed_ref=1 / me_range=24 / chroma_me=1 / trellis=1 / 8x8dct=1 / cqm=0 / deadzone=21,11 / fast_pskip=1 / chroma_qp_offset=-2 / threads=12 / lookahead_threads=1 / sliced_threads=0 / nr=0 / decimate=1 / interlaced=0 / bluray_compat=0 / constrained_intra=0 / bframes=3 / b_pyramid=2 / b_adapt=1 / b_bias=0 / direct=1 / weightb=1 / open_gop=0 / weightp=2 / keyint=250 / keyint_min=25 / scenecut=40 / intra_refresh=0 / rc_lookahead=40 / rc=crf / mbtree=1 / crf=20.0 / qcomp=0.60 / qpmin=10 / qpmax=51 / qpstep=4 / vbv_maxrate=62500 / vbv_bufsize=78125 / crf_max=0.0 / nal_hrd=none / filler=0 / ip_ratio=1.40 / aq=1:1.00
  Language : English
  Default : Yes
  Forced : No
   Audio #2
  ID : 2
  Format : AC-3
  Format/Info : Audio Coding 3
  Mode extension : CM (complete main)
  Format settings, Endianness : Big
  Codec ID : A_AC3
  Duration : 3 min
  Bit rate mode : Constant
  Bit rate : 448 kb/s
  Channel(s) : 2 channels
  Channel positions : Front: L R
  Sampling rate : 48.0 kHz
  Frame rate : 31.250 FPS (1536 spf)
  Compression mode : Lossy
  Stream size : 12.4 MiB (10%)
  Default : Yes
  Forced : No


   General
  Complete name : Celine Dion - Les Yeux Au Ciel @ M6 Music Show 100% tubes 2016, 2016-09-07.mkv
  Format : Matroska
  Format version : Version 4 / Version 2
  File size : 99.0 MiB
  Duration : 2 min
  Overall bit rate : 4 615 kb/s
  Encoded date : UTC 2016-09-11 11:56:58
  Writing application : mkvmerge v9.1.0 ('Little Earthquakes') 64bit
  Writing library : libebml v1.3.3 + libmatroska v1.4.4
   Video #1
  ID : 1
  Format : AVC
  Format/Info : Advanced Video Codec
  Format profile : High@L4.1
  Format settings, CABAC : Yes
  Format settings, ReFrames : 4 frames
  Codec ID : V_MPEG4/ISO/AVC
  Duration : 2 min
  Bit rate : 4 165 kb/s
  Width : 1 280 pixels
  Height : 720 pixels
  Display aspect ratio : 16:9
  Original display aspect ratio : 16:9
  Frame rate mode : Constant
  Frame rate : 25.000 FPS
  Color space : YUV
  Chroma subsampling : 4:2:0
  Bit depth : 8 bits
  Scan type : Progressive
  Bits/(Pixel*Frame) : 0.181
  Stream size : 89.4 MiB (90%)
  Writing library : x264 core 148 r2638 7599210
  Encoding settings : cabac=1 / ref=3 / deblock=1:0:0 / analyse=0x3:0x133 / me=umh / subme=9 / psy=1 / psy_rd=1.00:0.00 / mixed_ref=1 / me_range=24 / chroma_me=1 / trellis=1 / 8x8dct=1 / cqm=0 / deadzone=21,11 / fast_pskip=1 / chroma_qp_offset=-2 / threads=12 / lookahead_threads=1 / sliced_threads=0 / nr=0 / decimate=1 / interlaced=0 / bluray_compat=0 / constrained_intra=0 / bframes=3 / b_pyramid=2 / b_adapt=1 / b_bias=0 / direct=1 / weightb=1 / open_gop=0 / weightp=2 / keyint=250 / keyint_min=25 / scenecut=40 / intra_refresh=0 / rc_lookahead=40 / rc=crf / mbtree=1 / crf=20.0 / qcomp=0.60 / qpmin=10 / qpmax=51 / qpstep=4 / vbv_maxrate=62500 / vbv_bufsize=78125 / crf_max=0.0 / nal_hrd=none / filler=0 / ip_ratio=1.40 / aq=1:1.00
  Language : English
  Default : Yes
  Forced : No
   Audio #2
  ID : 2
  Format : AC-3
  Format/Info : Audio Coding 3
  Mode extension : CM (complete main)
  Format settings, Endianness : Big
  Codec ID : A_AC3
  Duration : 2 min
  Bit rate mode : Constant
  Bit rate : 448 kb/s
  Channel(s) : 2 channels
  Channel positions : Front: L R
  Sampling rate : 48.0 kHz
  Frame rate : 31.250 FPS (1536 spf)
  Compression mode : Lossy
  Stream size : 9.61 MiB (10%)
  Default : Yes
  Forced : No

Posted Image
Posted Image

Posted Image

Posted Image

Posted Image Posted Image Posted Image Posted Image Posted Image

Edited by kevincheung410, 25 September 2016 - 06:03 AM.

www.celinecn.com / www.celinedion.com.cn
Youku | Sohu

#3
dawn

dawn

    Celinephile

  • Channel Addicts
  • PipPipPipPipPipPipPipPipPipPipPip
    • Member ID: 175
  • 11,038 posts
  • Local time: 09:26 PM
  • Skin: Celine 2016
  • Joined: 03-November 04
  • Gender:
  • Country: Spain
  • Born: 1977
Thank you Kevin!!

#4
contre5nature

contre5nature

    Celine Freak

  • Members
  • PipPipPipPip
    • Member ID: 34,738
  • 837 posts
  • Local time: 09:26 PM
  • Skin: Celine 2016
  • Joined: 15-February 15
  • Gender:
  • From:Dans un autre monde
  • Country: Italy - Milan
  • Born: 1990
Thank you!!!! :clap:

#5
Boy

Boy

    Celine's queerest fan

  • Members
  • PipPipPipPipPip
    • Member ID: 750
  • 1,965 posts
  • Local time: 10:26 PM
  • Skin: Celine 2016
  • Joined: 08-December 04
  • Gender:
  • From:Minsk, Belarus
  • Country: Belarus
  • Born: 1988
Thanks
Love comes to those who believe it...

#6
cup99

cup99

    Member

  • Members
  • Pip
    • Member ID: 31,929
  • 35 posts
  • Local time: 02:26 PM
  • Skin: Celine 2016
  • Joined: 04-November 12
  • Gender:
  • Country: Canada
Thanks for sharing.

#7
cup99

cup99

    Member

  • Members
  • Pip
    • Member ID: 31,929
  • 35 posts
  • Local time: 02:26 PM
  • Skin: Celine 2016
  • Joined: 04-November 12
  • Gender:
  • Country: Canada
Do you have the interview as well?

#8
TiagoFragoso05

TiagoFragoso05

    Celine Obsessed

  • Members
  • PipPipPipPipPipPip
    • Member ID: 20,402
  • 2,653 posts
  • Local time: 11:26 AM
  • Skin: Celine 2016
  • Joined: 02-August 08
  • Gender:
  • From:Vancouver, Canada
  • Country: Canada
  • Born: 1992
thank you !
Please subscribe to my new channel. > https://www.youtube....7wkabGfTkBz41Yg
Posted Image

#9
kevincheung410

kevincheung410

    Celine Obsessed

  • Channel Addicts
  • PipPipPipPipPipPip
    • Member ID: 409
  • 2,630 posts
  • Local time: 03:26 AM
  • Skin: Celine 2016
  • Joined: 13-November 04
  • Gender:
  • Country: China
  • Born: 1983

View Postcup99, on 26 September 2016 - 11:47 AM, said:

Do you have the interview as well?

Yes. But not 720p.
www.celinecn.com / www.celinedion.com.cn
Youku | Sohu

#10
cup99

cup99

    Member

  • Members
  • Pip
    • Member ID: 31,929
  • 35 posts
  • Local time: 02:26 PM
  • Skin: Celine 2016
  • Joined: 04-November 12
  • Gender:
  • Country: Canada

View Postkevincheung410, on 28 September 2016 - 06:35 AM, said:

Yes. But not 720p.

No worries. Thanks for the reply.

#11
Emi1

Emi1

    Celine Freak

  • Members
  • PipPipPipPip
    • Member ID: 8,991
  • 640 posts
  • Local time: 02:26 PM
  • Skin: Celine 2016
  • Joined: 01-September 06
  • Gender:
  • Country: Argentina
thanks

#12
Oisbird

Oisbird

    Member

  • Members
  • Pip
    • Member ID: 35,262
  • 16 posts
  • Skin: Celine 2016
  • Joined: 29-December 15
  • Gender:
  • Country: Egypt
  • Born: 1967
Thank you

#13
celineonline

celineonline

    Celine Fan

  • Members
  • PipPip
    • Member ID: 13,943
  • 90 posts
  • Local time: 03:26 PM
  • Skin: Celine 2016
  • Joined: 07-September 07
  • Gender:
  • From:Germany
  • Country: Germany
Thank You!

#14
Maxim Kuliev

Maxim Kuliev

    Celine Fanatic

  • Members
  • PipPipPip
    • Member ID: 2,606
  • 134 posts
  • Local time: 03:26 PM
  • Skin: Celine 2016
  • Joined: 11-June 05
  • Gender:
  • From:Ukraine
  • Country: Ukraine
thank you

#15
daisy

daisy

    Celine Freak

  • Members
  • PipPipPipPip
    • Member ID: 305
  • 531 posts
  • Local time: 02:26 PM
  • Skin: Celine 2016
  • Joined: 08-November 04
  • Gender:
  • Country: china
  • Born: 1982
omg thanks very much

#16
koala44

koala44

    Celine Fanatic

  • Members
  • PipPipPip
    • Member ID: 32,449
  • 223 posts
  • Local time: 09:26 PM
  • Joined: 25-March 13
  • Gender:
  • Country: france
  • Born: 1953
merci

#17
Emi1

Emi1

    Celine Freak

  • Members
  • PipPipPipPip
    • Member ID: 8,991
  • 640 posts
  • Local time: 02:26 PM
  • Skin: Celine 2016
  • Joined: 01-September 06
  • Gender:
  • Country: Argentina
thanks

#18
blueericchen

blueericchen

    Newbie

  • Members
    • Member ID: 35,795
  • 3 posts
  • Local time: 03:26 AM
  • Joined: 11-July 16
  • Gender:
  • Country: taiwan
非常感謝




0 user(s) are reading this topic

0 members, 0 guests, 0 anonymous users


This topic has been visited by 29 user(s)


    blueericchen, rachel9767, koala44, Julianne, Emi1, lily94, stéph14, cup99, daisy, peny20, Jascka01, kevincheung410, leonardocheng, frana, Maxim Kuliev, Ploppy, celineonline, el_talisman, Javito, mirage, pame-65, dawn, CelineTheBest5, TiagoFragoso05, CELINE MARIE, Jackie, natalie_, Boy, contre5nature

Administrators: Koolan & Bellamy