Jump to content

Las Vegas Shows  

Welcome to Celine Dion Forum

Welcome to Celine Dion Forum, like most online communities you must register to view or post in our community, but don't worry this is a simple free process that requires minimal information for you to signup. Be a part of Celine Dion Forum by signing in or creating an account.
  • Start new topics and reply to others
  • Subscribe to topics and forums to get automatic updates
  • Get your own profile and make new friends
  • Customize your experience here
  • Click here to become a member!

[720p+1080i] A Home for the Holidays with Celine Dion @ CBS, 2013-12-183.44GB


  • Please log in to reply
12 replies to this topic

#1
kevincheung410

kevincheung410

    Celine Obsessed

  • Channel Addicts
  • PipPipPipPipPipPip
    • Member ID: 409
  • 2,630 posts
  • Local time: 02:15 PM
  • Skin: Celine 2016
  • Joined: 13-November 04
  • Gender:
  • Country: China
  • Born: 1983
Posted Image

Posted Image Posted Image

Hidden Content / Contenu Caché / Contenuto Nascosto / Contenido Oculto
You must reply to this topic to view it / Vous devez écrire un message dans ce topic pour le regarder / Devi postare un messaggio in questo topic per vedere il contenuto nascosto / Debes escribir un mensaje en este tema para visualizarlo

Posted Image


www.celinecn.com / www.celinedion.com.cn
Youku | Sohu

#2
giannislyber

giannislyber

    Celine Fanatic

  • Members
  • PipPipPip
    • Member ID: 32,855
  • 257 posts
  • Local time: 09:15 AM
  • Skin: Celine 2016
  • Joined: 28-August 13
  • Gender:
  • Country: Greece
  • Born: 1996
Thanks!

«And yet through this darkness there's always a light that shines through...»


#3
kevincheung410

kevincheung410

    Celine Obsessed

  • Channel Addicts
  • PipPipPipPipPipPip
    • Member ID: 409
  • 2,630 posts
  • Local time: 02:15 PM
  • Skin: Celine 2016
  • Joined: 13-November 04
  • Gender:
  • Country: China
  • Born: 1983
Posted Image
General
Complete name : A Home for the Holidays with Celine Dion @ CBS, 2013-12-18 [720p].mkv
Format : Matroska
Format version : Version 2
File size : 336 MiB
Duration : 17mn 52s
Overall bit rate : 2 625 Kbps

Video #1
Format : AVC
Format/Info : Advanced Video Codec
Bit rate : 2 450 Kbps
Width : 1 280 pixels
Height : 720 pixels
Display aspect ratio : 16:9
Frame rate mode : Variable
Color space : YUV
Chroma subsampling : 4:2:0
Bit depth : 8 bits

Audio #2
Format : AC-3
Format/Info : Audio Coding 3
Bit rate : 128 Kbps
Channel(s) : 2 channels
Channel positions : Front: L R
Sampling rate : 48.0 KHz
Bit depth : 16 bits
Compression mode : Lossy
Stream size : 16.4 MiB (5%)


General
Complete name : A Home for the Holidays with Celine Dion @ CBS, 2013-12-18 [1080i].ts
Format : MPEG-TS
File size   : 3.44 GiB
Duration    : 27mn 54s
Overall bit rate mode   : Variable
Overall bit rate    : 17.7 Mbps
Movie name : Program Name

Video
Format : MPEG Video
Bit rate mode   : Variable
Bit rate    : 16.4 Mbps
Maximum bit rate    : 38.8 Mbps
Width   : 1 920 pixels
Height : 1 080 pixels
Display aspect ratio    : 16:9
Active Format Description   : Full frame 16:9 image
Frame rate : 29.970 fps
Standard    : Component
Color space : YUV
Chroma subsampling : 4:2:0
Bit depth   : 8 bits
Scan type   : Interlaced

Audio
Format : AC-3
Format/Info : Audio Coding 3
Mode extension : CM (complete main)
Format settings, Endianness : Big
Bit rate mode   : Constant
Bit rate    : 384 Kbps
Channel(s) : 6 channels
Channel positions   : Front: L C R, Side: L R, LFE
Sampling rate   : 48.0 KHz
Compression mode    : Lossy
Stream size : 76.6 MiB (2%)

Posted Image

Posted Image


Attached File  Céline Dion - A Home for the Holidays with Céline Dion (with speech) 1080i-Brian.ts.jpg   461.73K   3 downloads

Posted Image

Posted Image Posted Image
Posted Image Posted Image
Posted Image Posted Image
www.celinecn.com / www.celinedion.com.cn
Youku | Sohu

#4
SvetlanaSav

SvetlanaSav

    Celine Fanatic

  • Members
  • PipPipPip
    • Member ID: 6,335
  • 180 posts
  • Local time: 01:15 AM
  • Skin: Celine 2016
  • Joined: 08-March 06
  • Gender:
  • Country: Russia
Thank you.

#5
celineonline

celineonline

    Celine Fan

  • Members
  • PipPip
    • Member ID: 13,943
  • 90 posts
  • Local time: 01:15 AM
  • Skin: Celine 2016
  • Joined: 07-September 07
  • Gender:
  • From:Germany
  • Country: Germany
Thanks for sharing!

#6
koala44

koala44

    Celine Fanatic

  • Members
  • PipPipPip
    • Member ID: 32,449
  • 223 posts
  • Local time: 08:15 AM
  • Joined: 25-March 13
  • Gender:
  • Country: france
  • Born: 1953
merci

#7
lesh2004

lesh2004

    Member

  • Members
  • Pip
    • Member ID: 19,282
  • 39 posts
  • Local time: 01:15 AM
  • Skin: Celine 2016
  • Joined: 21-May 08
  • Gender:
  • Country: USA
  • Born: 1985
Thank You

#8
Davey84

Davey84

    a prince among men

  • Moderators
  • PipPipPipPipPipPipPipPipPipPipPipPip
    • Member ID: 4,296
  • 24,644 posts
  • Local time: 08:15 AM
  • Skin: Celine 2016
  • Joined: 03-October 05
  • Gender:
  • From:Scheveningen
  • Country: Netherlands
  • Born: 1984
Oh great! I still haven't watched it :blushing1:

Posted Image


Rick, ik hou van jou voor altijd!



A New Day... has come 28/29 April & 2/3 May 07



Antwerpen 13 et 14 mai,Paris 24 et 25 mai, Amsterdam 2 juinet Arras 7 juillet Chances Taken!!!



How Do You Keep The Music Playing? - Celine Opening Night March 15th, March 16th


#9
ThereseDion

ThereseDion

    Celine Fanatic

  • Members
  • PipPipPip
    • Member ID: 8,227
  • 462 posts
  • Local time: 01:15 AM
  • Skin: Celine 2016
  • Joined: 07-August 06
  • Gender:
  • Country: US
Thank you.

#10
marcelolongati

marcelolongati

    Newbie

  • Members
    • Member ID: 32,820
  • 7 posts
  • Local time: 03:15 AM
  • Joined: 14-August 13
  • Gender:
  • From:Sao Paulo / Brazil
  • Country: Brazil
  • Born: 1992
tks

#11
Emi1

Emi1

    Celine Freak

  • Members
  • PipPipPipPip
    • Member ID: 8,991
  • 640 posts
  • Local time: 01:15 AM
  • Skin: Celine 2016
  • Joined: 01-September 06
  • Gender:
  • Country: Argentina
:clap:

#12
Artur138

Artur138

    Newbie

  • Members
    • Member ID: 36,817
  • 1 posts
  • Joined: 07-December 17
  • Gender:
  • Country: UK
  • Born: 1993

View Postkevincheung410, on 14 April 2016 - 01:27 AM, said:

Posted Image

Posted Image Posted Image



Posted Image

[url="http://player.youku.com/player.php/sid/[color=#141414][font=%27Droid"]http://player.youku....'Droid[/url] Sans', 'Open Sans', 'Helvetica Neue', Helvetica, Arial, sans-serif][size=4]XNjUwNjYzNzUy[/size][/font][/color]/v.swf
thx

#13
blueericchen

blueericchen

    Newbie

  • Members
    • Member ID: 35,795
  • 1 posts
  • Local time: 02:15 PM
  • Joined: 11-July 16
  • Gender:
  • Country: taiwan
thank you so much!




0 user(s) are reading this topic

0 members, 0 guests, 0 anonymous users


This topic has been visited by 27 user(s)


    RoyBoy_TLV, Peppercorn1991, blueericchen, frana, Artur138, MohamedSah, Emi1, Jascka01, dawn, Niko's, TiagoFragoso05, kevincheung410, marcelolongati, koala44, peny20, SvetlanaSav, ThereseDion, contre5nature, giannislyber, MyHappyBill, lesh2004, GoldenLeaf, Gicedi, Koolan, celineonline, Celine Fan 77, anewdayhascome

Administrators: Koolan & Bellamy