Jump to content

Las Vegas Shows  

Welcome to Celine Dion Forum

Welcome to Celine Dion Forum, like most online communities you must register to view or post in our community, but don't worry this is a simple free process that requires minimal information for you to signup. Be a part of Celine Dion Forum by signing in or creating an account.
  • Start new topics and reply to others
  • Subscribe to topics and forums to get automatic updates
  • Get your own profile and make new friends
  • Customize your experience here
  • Click here to become a member!

[1080i] Celine Dion & Peabo Bryson - Beauty And The Beast @ Wogan, BBC Two HD, 2015-12-09Original from 1992


  • Please log in to reply
9 replies to this topic

#1
kevincheung410

kevincheung410

    Celine Obsessed

  • Channel Addicts
  • PipPipPipPipPipPip
    • Member ID: 409
  • 2,635 posts
  • Local time: 11:49 AM
  • Skin: Celine 2016
  • Joined: 13-November 04
  • Gender:
  • Country: China
  • Born: 1983
Posted Image
现提供8种下载方法:
Hidden Content / Contenu Caché / Contenuto Nascosto / Contenido Oculto
You must reply to this topic to view it / Vous devez écrire un message dans ce topic pour le regarder / Devi postare un messaggio in questo topic per vedere il contenuto nascosto / Debes escribir un mensaje en este tema para visualizarlo
Posted Image

http://my.tv.sohu.co.../82451954.shtml
http://v.youku.com/v...g5NzY0MA==.html
https://vimeo.com/148831601




Edited by kevincheung410, 13 December 2015 - 11:53 PM.

www.celinecn.com / www.celinedion.com.cn
Youku | Sohu

#2
kevincheung410

kevincheung410

    Celine Obsessed

  • Channel Addicts
  • PipPipPipPipPipPip
    • Member ID: 409
  • 2,635 posts
  • Local time: 11:49 AM
  • Skin: Celine 2016
  • Joined: 13-November 04
  • Gender:
  • Country: China
  • Born: 1983
Posted Image

Recorded by kmfan_ from tlfan

   General #2050
  Complete name : Celine Dion & Peabo Bryson - Beauty And The Beast @ Wogan - The Best Of [4 of 15], BBC Two HD, 2015-12-09.ts
  Format : MPEG-TS
  File size : 90.6 MiB
  Duration : 3mn 40s
  Overall bit rate mode : Variable
  Overall bit rate : 3 444 Kbps
   Video #5500
  Format : AVC
  Bit rate : 2 821 Kbps
  Width : 1 920 pixels
  Height : 1 080 pixels
  Display aspect ratio : 16:9
  Frame rate : 25.000 fps
  Standard : Component
  Color space : YUV
  Chroma subsampling : 4:2:0
  Bit depth : 8 bits
  Scan type : MBAFF
  Scan order : Top Field First
  Bits/(Pixel*Frame) : 0.054
  Stream size : 74.1 MiB (82%)
   Audio #5501
  Format : AC-3
  Bit rate mode : Constant
  Bit rate : 192 Kbps
  Channel(s) : 2 channels
  Channel positions : Front: L R
  Sampling rate : 48.0 KHz
  Compression mode : Lossy
  Delay relative to video : 21ms
  Stream size : 5.04 MiB (6%)
   Audio #5502
  Format : MPEG Audio
  Bit rate mode : Constant
  Bit rate : 256 Kbps
  Channel(s) : 2 channels
  Sampling rate : 48.0 KHz
  Compression mode : Lossy
  Delay relative to video : 50ms
   Text #5503-888
  Format : Teletext
  Language : English
   Text #5504
  Format : DVB Subtitle
  Language : English

Posted Image
Posted Image
Posted Image

Posted Image Posted Image

Posted Image Posted Image

Posted Image Posted Image

Posted Image Posted Image

Posted Image

Edited by kevincheung410, 13 December 2015 - 11:59 PM.

www.celinecn.com / www.celinedion.com.cn
Youku | Sohu

#3
Matias

Matias

    Celine Obsessed

  • Members
  • PipPipPipPipPipPip
    • Member ID: 22,352
  • 2,520 posts
  • Local time: 12:49 AM
  • Skin: Celine 2016
  • Joined: 15-December 08
  • Gender:
  • From:Buenos Aires - Argentina
  • Country: Argentina
  • Born: 1982
I think she was still dreaming about the Eurovision outfit hahah

Posted Image

"No no, put it back..."


#4
Loup_garou

Loup_garou

    Celine Enthusiast

  • Members
  • PipPipPipPipPip
    • Member ID: 2,631
  • 1,429 posts
  • Local time: 10:49 PM
  • Skin: Celine 2016
  • Joined: 13-June 05
  • Gender:
  • Country: Colombia
  • Born: 1982
Wow Thank you so much!

#5
tal-sh2

tal-sh2

    Celine Obsessed

  • Channel Addicts
  • PipPipPipPipPipPip
    • Member ID: 4,328
  • 2,522 posts
  • Local time: 06:49 AM
  • Skin: Parler a mon pere
  • Joined: 05-October 05
  • Gender:
  • Country: Israel
  • Born: 1993
thank you so much! wondeful
"These walls keep a secret, That only we know..."
Posted Image
Sorry for my English.

#6
Mac

Mac

    Celine Enthusiast

  • Members
  • PipPipPipPipPip
    • Member ID: 197
  • 1,507 posts
  • Local time: 10:49 PM
  • Skin: Celine 2016
  • Joined: 03-November 04
  • Gender:
  • Country: China
  • Born: 1984
好久没来这里了。。。 。。。
Posted Image

#7
TiagoFragoso05

TiagoFragoso05

    Celine Obsessed

  • Members
  • PipPipPipPipPipPip
    • Member ID: 20,402
  • 2,787 posts
  • Local time: 07:49 PM
  • Skin: Celine 2016
  • Joined: 02-August 08
  • Gender:
  • From:Vancouver, Canada
  • Country: Canada
  • Born: 1992
wow nice!
Please subscribe to my new channel. > https://www.youtube....7wkabGfTkBz41Yg
Posted Image

#8
daisy

daisy

    Celine Freak

  • Members
  • PipPipPipPip
    • Member ID: 305
  • 531 posts
  • Local time: 10:49 PM
  • Skin: Celine 2016
  • Joined: 08-November 04
  • Gender:
  • Country: china
  • Born: 1982
thanks for sharing

#9
Emi1

Emi1

    Celine Freak

  • Members
  • PipPipPipPip
    • Member ID: 8,991
  • 640 posts
  • Local time: 10:49 PM
  • Skin: Celine 2016
  • Joined: 01-September 06
  • Gender:
  • Country: Argentina
thanks

#10
eks22

eks22

    Newbie

  • Members
    • Member ID: 37,220
  • 5 posts
  • Local time: 10:49 PM
  • Joined: 17-February 19
  • Gender:
  • Country: USA
  • Born: 1990
thnx thnx if stil can see / download




0 user(s) are reading this topic

0 members, 0 guests, 0 anonymous users


This topic has been visited by 35 user(s)


    celinecolombian, eks22, gareth098, Emi1, daisy, peny20, Jascka01, kevincheung410, dedeu3, dawn, bourque222, TiagoFragoso05, SvetlanaSav, Adeline, Jackie, Sonia Descheneaux, Mac, Boy, AllaneZ, mbox1974, LeChauffeur100, Koolan, DestinMg5, wjd, GoldenLeaf, Loup_garou, tal-sh2, neilg, Chrissi, pame-65, Celine Fan 77, Matias, giannislyber, cher&celinefan, Tyler1991

Administrators: Koolan & Bellamy