Jump to content

Las Vegas Shows  

Welcome to Celine Dion Forum

Welcome to Celine Dion Forum, like most online communities you must register to view or post in our community, but don't worry this is a simple free process that requires minimal information for you to signup. Be a part of Celine Dion Forum by signing in or creating an account.
  • Start new topics and reply to others
  • Subscribe to topics and forums to get automatic updates
  • Get your own profile and make new friends
  • Customize your experience here
  • Click here to become a member!

We Are The World 25 For Haiti 2010 [ts,1080i]


  • Please log in to reply
4 replies to this topic

#1
kevincheung410

kevincheung410

    Celine Obsessed

  • Channel Addicts
  • PipPipPipPipPipPip
    • Member ID: 409
  • 2,638 posts
  • Local time: 03:31 AM
  • Skin: Celine 2016
  • Joined: 13-November 04
  • Gender:
  • Country: China
  • Born: 1983
Posted Image
现提供2种下载方法:
Posted ImagePosted Image

Hidden Content / Contenu Caché / Contenuto Nascosto / Contenido Oculto
You must reply to this topic to view it / Vous devez écrire un message dans ce topic pour le regarder / Devi postare un messaggio in questo topic per vedere il contenuto nascosto / Debes escribir un mensaje en este tema para visualizarlo

Posted Image
http://v.youku.com/v...I2ODQ3OTc2.html

www.celinecn.com / www.celinedion.com.cn
Youku | Sohu

#2
kevincheung410

kevincheung410

    Celine Obsessed

  • Channel Addicts
  • PipPipPipPipPipPip
    • Member ID: 409
  • 2,638 posts
  • Local time: 03:31 AM
  • Skin: Celine 2016
  • Joined: 13-November 04
  • Gender:
  • Country: China
  • Born: 1983
Posted Image
   General #1
  Complete name : We Are The World 25 For Haiti 1080i.ts
  Format : MPEG-TS
  File size : 610 MiB
  Duration : 6mn 50s
  Overall bit rate mode : Variable
  Overall bit rate : 12.5 Mbps
  Maximum Overall bit rate : 35.5 Mbps
   Video #4113
  Format : MPEG Video
  Format version : Version 2
  Bit rate : 11.5 Mbps
  Maximum bit rate : 13.6 Mbps
  Width : 1 920 pixels
  Height : 1 080 pixels
  Display aspect ratio : 16:9
  Frame rate : 29.970 fps
  Standard : Component
  Color space : YUV
  Chroma subsampling : 4:2:0
  Bit depth : 8 bits
  Compression mode : Lossy
  Bits/(Pixel*Frame) : 0.184
  Time code of first frame : 00:37:45;04
  Time code source : Group of pictures header
  Stream size : 561 MiB (92%)
  Color primaries : BT.709
  Transfer characteristics : BT.709
  Matrix coefficients : BT.709
   Audio #4352
  Format : AC-3
  Mode extension : CM (complete main)
  Format settings, Endianness : Big
  Codec ID : 129
  Bit rate mode : Constant
  Bit rate : 384 Kbps
  Channel(s) : 6 channels
  Channel positions : Front: L C R, Side: L R, LFE
  Sampling rate : 48.0 KHz
  Bit depth : 16 bits
  Compression mode : Lossy
  Delay relative to video : -105ms
  Stream size : 18.8 MiB (3%)
  Language : English




Posted Image

Posted Image

Posted Image

Posted Image Posted Image

Posted Image Posted Image

Posted Image Posted Image

Posted Image Posted Image

Edited by kevincheung410, 05 April 2015 - 09:37 PM.

www.celinecn.com / www.celinedion.com.cn
Youku | Sohu

#3
fikus1

fikus1

    Celine Fanatic

  • Members
  • PipPipPip
    • Member ID: 11,340
  • 487 posts
  • Local time: 09:31 PM
  • Skin: Mobile
  • Joined: 06-April 07
  • Gender:
  • Country: Poland
  • Born: 1989
Thank you!

#4
Emi1

Emi1

    Celine Freak

  • Members
  • PipPipPipPip
    • Member ID: 8,991
  • 640 posts
  • Local time: 02:31 PM
  • Skin: Celine 2016
  • Joined: 01-September 06
  • Gender:
  • Country: Argentina
thanks

#5
celinecolombian

celinecolombian

    Celine Freak

  • Members
  • PipPipPipPip
    • Member ID: 14,647
  • 544 posts
  • Local time: 02:31 PM
  • Skin: Celine 2016
  • Joined: 22-October 07
  • Gender:
  • From:Cali, Colombia
  • Country: Colombia
  • Born: 1982
thank you :clap:

Posted Image





0 user(s) are reading this topic

0 members, 0 guests, 0 anonymous users


This topic has been visited by 12 user(s)


    celinecolombian, blueericchen, Emi1, peny20, contre5nature, kevincheung410, fikus1, dawn, Miha, Austinadk, debora, pame-65

Administrators: Koolan & Bellamy